2018”N08ŒŽ12“ú

u‰iPû¹—íŒN_îãS“TvŽ„“ICDì»

@ˆÈ‘O‚½‚Ü‚½‚܁AƒeƒŒƒTEƒeƒ“‚Ì“ú–{‚̋ȂŁAƒ}ƒCƒi[‚È‚à‚̂΂©‚èW‚ß‚½ƒŠƒXƒg‚ɏo‰ï‚¢A‚»‚ê‚ðiPod‚É“ü‚ê‚悤‚ÆŽv‚Á‚½‚Ì‚Å‚·‚ªAŒ©‚‚©‚è‚Ü‚¹‚ñB
@Œ‹\ŽžŠÔ‚ðŽg‚¢‚Ü‚µ‚½‚ª‘ʖڂŁA‚»‚ñ‚È‚È‚©’†‘Œê‚̉̏¥‚΂©‚è‚ÌCD‚S–‡‘g‚ðŒ©‚Â‚¯‚Ü‚µ‚½B

‰iPû¹—íŒN_îãS“T.png

@‚S–‡‘g‚Å‚·‚ªA‚Q–‡–Ú‚¾‚¯‚ÍYouTube‚ւ̃Aƒbƒvƒ[ƒh‚ðUniversal Music‚ª”F‚ß‚Ä‚¢‚È‚¢‚悤‚Å‚·B

@‹È–Ú‚Í‚ ‚è‚ӂꂽ‚à‚Ì‚Å‚·‚̂ŁA–ڐV‚µ‚³‚Í‚ ‚è‚Ü‚¹‚ñ‚ªACDì»‚Ì—ûK‚ð‚µ‚Ä‚Ý‚Ü‚µ‚½B
@‚PŽžŠÔˆÈã‚Ì’·‚¢waveƒtƒ@ƒCƒ‹‚ðì¬i‚È‚º‚©’Pƒ‚Ƀ_ƒEƒ“ƒ[ƒh‚Å‚«‚È‚¢‚à‚Ì‚à‚ ‚èj‚µ‚āA‹È–Ú–ˆ‚É•ªŠ„‚µ‚È‚¯‚ê‚΂Ȃè‚Ü‚¹‚ñ‚ªA60‹È•ª‚É•ªŠ„‚·‚é‚̂́AŒ‹\–Ê“|‚Å‚·B
@K‚¢AŠe‹È‚Ì“ª‚̃^ƒCƒ~ƒ“ƒO‚Í“ŠeŽÒ‚ª‘‚¢‚Ä‚¨‚¢‚Ä‚­‚ꂽ‚Ì‚Å‚»‚ê‚ð‚Ç‚¤‚É‚©—˜—p‚·‚邱‚Æ‚É‚µ‚Ü‚µ‚½B
@waveƒtƒ@ƒCƒ‹‚̉ÁH‚́AŒÃ‚­‚©‚çŽg‚Á‚Ä‚¢‚éGoldWave‚Å‚·‚ªA•ªŠ„‚Ìcueƒ|ƒCƒ“ƒg‚ð¡‚Ü‚Å‚¸‚Á‚ÆŽèì‹ÆiŽ¨‚Ɩځj‚Å‚â‚Á‚Ä‚«‚Ü‚µ‚½‚ªA[ƒtƒ@ƒCƒ‹‚̓ǂݍž‚݁v‚Æ‚¢‚¤‚Ì‚ª‚ ‚é‚̂ŁA‚±‚ê‚ðŽg‚Á‚ÄŒ©‚Ü‚µ‚½B
@‰‚ß‚Ä‚Ì*.cue‚Å‚µ‚½‚ªAŽŽsöŒë‚ʼn½‚Æ‚©ƒtƒH[ƒ}ƒbƒg‚ª•ª‚©‚è‚Ü‚µ‚½BiŒã‚É‚È‚Á‚čl‚¦‚é‚ƁAŒŸõ‚µ‚Ä’²‚ׂê‚΁A‚»‚Ì•û‚ª‚¸‚Á‚ÆŠy‚Å‘‚©‚Á‚½Bj

@‚±‚ñ‚ÈŠ´‚¶‚Å‚·B
TRACK 01 AUDIO
TITLE "01. ‰ä˜a你 00:00"
INDEX 01 00:00:00
TRACK 02 AUDIO
TITLE "02. l–ñ‰©¨@ 03:56"
INDEX 01 03:56:00
TRACK 03 AUDIO
TITLE "03. …ãl 06:42"
INDEX 01 06:42:00
TRACK 04 AUDIO
TITLE "04. ˜ï”@‰ä¥^“I 09:54"
INDEX 01 09:54:00
TRACK 05 AUDIO
TITLE "05. ãNãN¬‰J 13:02"
INDEX 01 13:02:00
TRACK 06 AUDIO
TITLE "06. •—˜¸—¡—¢—ˆ 16:41"
INDEX 01 16:41:00
TRACK 07 AUDIO
TITLE "07. –”Œ©†à| 20:13"
INDEX 01 20:13:00
TRACK 08 AUDIO
TITLE "08. ‰äS[™| 23:09"
INDEX 01 23:09:00
TRACK 09 AUDIO
TITLE "09. ‘ŠŒ©Ý–¾“V 27:01"
INDEX 01 27:01:00
TRACK AUDIO
TITLE "10. ‘½î“I玫àñ 31:41"
INDEX 01 31:41:00
TRACK 11 AUDIO
TITLE "11. ‹ÝÖ–¦ 35:59"
INDEX 01 35:59:00
TRACK 12 AUDIO
TITLE "12. “[–¨“I¬‰J 40:24"
INDEX 01 40:24:00
TRACK 13 AUDIO
TITLE "13. •sŠÇ你¥’N 43:52"
INDEX 01 43:52:00
TRACK 14 AUDIO
TITLE "14. “Vîr’n—Lîl 46:21"
INDEX 01 46:21:00
TRACK 15 AUDIO
TITLE "15. Ù‰J–â‘““V 50:09"
INDEX 01 50:09:00
TRACK 16 AUDIO
TITLE "16. –é–¶ 52:42"
INDEX 01 52:42:00
TRACK 17 AUDIO
TITLE "17. ˆ¤•ç 56:02"
INDEX 01 56:02:00
TRACK 18 AUDIO
TITLE "18. ¡–é‘z‹N你 59:31"
INDEX 01 59:31:00
TRACK 19 AUDIO
TITLE "19. •—‘š”º‰äs 01:03:22"
INDEX 01 63:22:00


TITLE s‚́A‚±‚ñ‚Ȃɏڂµ‚­‚È‚­‚Ä‚à‚¢‚¢‚Ì‚Å‚·‚ªi‚Ђå‚Á‚Æ‚·‚é‚Əȗª‰ÂHjA‚à‚Ƃ̃f[ƒ^‚É‚ ‚Á‚½‚̂ŊԈႢ–hŽ~‚Ì‚½‚ß‚É‚à‹È–ځEŠJŽnƒ^ƒCƒ~ƒ“ƒO‚ðƒ^ƒCƒgƒ‹‚Æ‚µ‚Ü‚µ‚½B
@Å‰‚PŽžŠÔ‚ð‰z‚¦‚éê‡‚ª•ª‚©‚炸Ž¸”s‚µ‚½‚Ì‚Å‚·‚ªA‚PŽžŠÔ‚̏ꍇ‚Í60•ª‚ð‰Á‚¦‚½”Žš‚𕪂Ƃ·‚邱‚Æ‚à•ª‚©‚è‚Ü‚µ‚½B

@‚»‚ñ‚È‚±‚Æ‚ð‚µ‚È‚ª‚çA‚R–‡‚ÌCD‚ª‚Å‚«‚āAiTunes‚É“ü‚ê‚Ü‚µ‚½B

‰iPû¹—íŒN_îãS“T2.png


@‚¹‚Á‚©‚­‹È–Ú‚ð“ü‚ê‚Ä‚àAiTunes^iPod’iŠK‚Å‚Í‚¿‚á‚ñ‚Æ•\Ž¦‚Å‚«‚Ä‚àAƒgƒˆƒ^‚̏ƒ³ƒJ[ƒiƒr‚ÉiPod‚ðŒq‚¢‚ōж‚·‚é‚ƁAŽ•”²‚¯ó‘Ô‚É‚È‚Á‚Ä‚µ‚Ü‚¤‚Ì‚ªŽc”O‚Å‚·B




•ÊŠÙFOn Teresa Teng





posted by kewpie at 23:00| Comment(0) | TrackBack(0) | ƒeƒŒƒTEƒeƒ“
‚±‚Ì‹LŽ–‚ւ̃Rƒƒ“ƒg
ƒRƒƒ“ƒg‚ð‘‚­
‚¨–¼‘O: [•K{“ü—Í]

ƒ[ƒ‹ƒAƒhƒŒƒX:

ƒz[ƒ€ƒy[ƒWƒAƒhƒŒƒX:

ƒRƒƒ“ƒg: [•K{“ü—Í]

”FØƒR[ƒh: [•K{“ü—Í]


¦‰æ‘œ‚Ì’†‚Ì•¶Žš‚𔼊p‚Å“ü—Í‚µ‚Ä‚­‚¾‚³‚¢B
‚±‚Ì‹LŽ–‚ւ̃gƒ‰ƒbƒNƒoƒbƒNURL
http://blog.sakura.ne.jp/tb/184195421
¦ƒuƒƒOƒI[ƒi[‚ª³”F‚µ‚½ƒgƒ‰ƒbƒNƒoƒbƒN‚Ì‚Ý•\Ž¦‚³‚ê‚Ü‚·B
¦Œ¾‹yƒŠƒ“ƒN‚Ì‚È‚¢ƒgƒ‰ƒbƒNƒoƒbƒN‚ÍŽóM‚³‚ê‚Ü‚¹‚ñB

‚±‚Ì‹LŽ–‚ւ̃gƒ‰ƒbƒNƒoƒbƒN
ƒRƒƒ“ƒg‚Ì“Še‚ɂ‚¢‚Ä
›‚¨–¼‘O‚ƃRƒƒ“ƒg—“‚Ì‹L“ü‚Í•K{‚Å‚·B
›ƒ[ƒ‹ƒAƒhƒŒƒX‚Í”CˆÓ‚Å‚·B‹L“ü‚³‚ê‚Ä‚àŒöŠJ‚Í‚³‚ê‚Ü‚¹‚ñBŠÇ—l‚Ì‚Ý‚É’m‚炳‚ê‚Ü‚·B
›ƒXƒpƒ€–hŽ~‚Ì‚½‚߁A
Eƒz[ƒ€ƒy[ƒWƒAƒhƒŒƒX—“‚Ö‚Ì‹L“ü‚Í‚Å‚«‚Ü‚¹‚ñB
EƒRƒƒ“ƒg—“‚ÉURL‚Í‹L“ü‚Å‚«‚Ü‚¹‚ñB
EƒXƒpƒ€‚ÆŽv‚í‚ê‚éŒê‚ð‹L“ü‚Å‚«‚Ü‚¹‚ñB
@‚±‚ê‚ç‚ð‚µ‚æ‚¤‚Æ‚·‚é‚ƁAÅI“I‚É“ŠeŠ®—¹‚Å‚«‚Ü‚¹‚ñB
›“ŠeŠ®—¹Œã‚ɁAŠÇ—l‚Ì”»’f‚ŃXƒpƒ€‚Æ”»’f‚µ‚½“Še‚͍폜‚³‚¹‚Ä‚¢‚½‚¾‚«‚Ü‚·B